TV / Kryminalny
Hassel S01E01 [1080p.WEBRip.x264.AC3] [Lektor PL] [SWE+Napisy PL]


Dodał: Lukarusi
Data dodania:
2017-10-18 19:03:38
Rozmiar: 1.41 GB
Ostat. aktualizacja:
2017-11-07 06:58:37
Seedów: 42
Peerów: 1


Komentarze: 0

Info:

produkcja: Szwecja, Niemcy, Belgia
gatunek: Kryminał, Dramat, Thriller
reżyseria: Amir Chamdin, Erik Eger, Eshref Reybrouck
scenariusz: Henrik Jansson-Schweizer, Morgan Jensen, Björn Paqualin
zdjęcia: Crille Forsberg, Christophe Nuyens, Calle Persson
muzyka: Joacim Starander, Nicke Andersson
czas trwania: ok. 42 min.

Opis:

Ojciec detektywa Rolanda Hassela zostaje brutalnie zamordowany na środku ulicy. Roland, wspólnie ze swoimi najbardziej oddanymi pracownikami, postanawia rozpocząć własne tajne śledztwo, aby ustalić zabójców ojca. Hassel popada w obsesję, co skutkuje całkowitym załamaniem się jego relacji rodzinnych. Poszukiwania zabójcy prowadzą do ustaleń, iż zamieszani w sprawę są ludzie władzy ze Sztokholmu i Brukseli. Detektyw w swojej walce przeciwko przestępczości i korupcji nie cofnie się przed niczym.

Obsada:

Ola Rapace - Roland Hassel
Aliette Opheim - Daniela Bergman
Shanti Roney - Thomas Meyer
Nanna Blondell - Eira Lindhe
Ana Gil Melo Nascimento - Fatima Nidal
Wilma Lidén - Vida Bergman
Thomas Holmin - Simon Palm
David Nzinga - Johannes Frank
Kalled Mustonen - Petri Mikkola

Dane techniczne:

Format : Matroska
Format version : Version 4 / Version 2
File size : 1.41 GiB
Duration : 42 min 39 s
Overall bit rate : 4 739 kb/s
Encoded date : UTC 2017-10-18 16:13:50

Video
ID : 1
Format : AVC
Format/Info : Advanced Video Codec
Format profile : Baseline@L4
Format settings, CABAC : No
Format settings, RefFrames : 1 frame
Codec ID : V_MPEG4/ISO/AVC
Duration : 42 min 39 s
Bit rate : 3 969 kb/s
Width : 1 920 pixels
Height : 1 080 pixels
Display aspect ratio : 16:9
Frame rate mode : Constant
Frame rate : 25.000 FPS
Color space : YUV
Chroma subsampling : 4:2:0
Bit depth : 8 bits
Scan type : Progressive
Bits/(Pixel*Frame) : 0.077
Stream size : 1.18 GiB (84%)
Writing library : x264 core 150

Audio 1
ID : 2
Format : AC-3
Format/Info : Audio Coding 3
Format settings, Endianness : Big
Codec ID : A_AC3
Duration : 42 min 39 s
Bit rate mode : Constant
Bit rate : 384 kb/s
Channel(s) : 2 channels
Channel positions : Front: L R
Sampling rate : 48.0 kHz
Frame rate : 31.250 FPS (1536 SPF)
Bit depth : 16 bits
Compression mode : Lossy
Stream size : 117 MiB (8%)
Language : Polish
Service kind : Complete Main
Default : Yes
Forced : Yes

Audio 2
ID : 3
Format : AC-3
Format/Info : Audio Coding 3
Format settings, Endianness : Big
Codec ID : A_AC3
Duration : 42 min 39 s
Bit rate mode : Constant
Bit rate : 384 kb/s
Channel(s) : 2 channels
Channel positions : Front: L R
Sampling rate : 48.0 kHz
Frame rate : 31.250 FPS (1536 SPF)
Bit depth : 16 bits
Compression mode : Lossy
Stream size : 117 MiB (8%)
Language : Swedish
Service kind : Complete Main
Default : No
Forced : No

Text
ID : 4
Format : UTF-8
Codec ID : S_TEXT/UTF8
Codec ID/Info : UTF-8 Plain Text
Duration : 41 min 50 s
Bit rate : 25 b/s
Count of elements : 279
Stream size : 7.82 KiB (0%)
Language : Polish
Default : No
Forced : No

Lista plików Show/Hide [Pokaż/Ukryj]
Trackery
  • http://tracker.torrentyorg.pl/announce
  • udp://9.rarbg.com:2710/announce
  • udp://9.rarbg.me:2740/announce
  • udp://eddie4.nl:6969/announce
  • udp://tracker.leechers-paradise.org:6969/announce
  • udp://shadowshq.eddie4.nl:6969/announce
  • http://agusiq-torrents.pl:6969/announce
  • udp://poloniumsurfer.tk:6969/announce
  • http://tracker.filetracker.pl:8089/announce
  • udp://torrent.gresille.org:80/announce
  • udp://tracker.pomf.se:80/announce
  • udp://10.rarbg.com/announce
  • udp://tracker.openbittorrent.com:80/announce
  • udp://sugoi.pomf.se:80/announce
  • udp://tracker.glotorrents.com:6969/announce
  • http://mgtracker.org:2710/announce
  • udp://exodus.desync.com:6969/announce
  • udp://tracker.istole.it:80/announce
  • udp://tracker.prq.to/announce
  • udp://t1.pow7.com/announce
  • http://retracker.omsk.ru:2710/announce
  • udp://tracker.torrentbay.to:6969/announce
  • udp://tracker.publicbt.com/announce
  • http://tracker.tfile.me/announce

Brak komentarzy!

Żaden z plików nie znajduje się na serwerze. Torrenty są własnością użytkowników. Administrator serwisu nie może ponieść konsekwencji za to co użytkownicy wstawiają, lub za to co czynią na stronie. Nie możesz używać tego serwisu do rozpowszechniania lub ściągania materiałów do których nie masz odpowiednich praw lub licencji. Użytkownicy odpowiedzialni są za przestrzeganie tych zasad.
Copyright © 2016 Ex-Torrentyorgs.pl

Najlepsze strony Torrentowe