TV / Horror
The Exorcist S02E03 - Unclean [720p.WEB-DL.H.264.DD5.1] [Napisy PL]


Dodał: Lukarusi
Data dodania:
2017-10-18 20:07:59
Rozmiar: 1.37 GB
Ostat. aktualizacja:
2017-10-19 18:26:42
Seedów: 279
Peerów: 143


Komentarze: 0

Info:

produkcja: USA
gatunek: Horror, Thriller
reżyseria: Jason Ensler, Alex Garcia Lopez, So Yong Kim, Deran Sarafian, Ti West
scenariusz: William Peter Blatty, Jeremy Slater, Alyssa Clark, Rebecca Kirsch
zdjęcia: Byron Shah
muzyka: Tyler Bates
czas trwania: ok. 44 min.

Opis:

Serial oparty na powieści Williama Blatty’ego z 1971 roku. Twórcy The Exorcist przedstawiają zupełnie inną historię z nowymi postaciami, jednak fabuła wciąż skupia się na walce ze złem. Bohaterowie zajmują się jednym z przypadków opętania i obecności demonicznej mocy, której muszą stawić czoła.

Obsada:

Alfonso Herrera - Tomas Ortega
Ben Daniels - Marcus Keane
Kurt Egyiawan - Bennett
Cyrus Arnold - David "Truck" Johnson III
Amélie Eve - Grace
Hunter Dillon - Caleb
Li Jun Li - Rose Cooper
Alex Barima - Shelby

Dane techniczne:

Format : Matroska
Format version : Version 4 / Version 2
File size : 1.37 GiB
Duration : 43 min 58 s
Overall bit rate : 4 457 kb/s
Encoded date : UTC 2017-10-18 17:54:25

Video
ID : 1
Format : AVC
Format/Info : Advanced Video Codec
Format profile : High@L3.1
Format settings, CABAC : No
Format settings, RefFrames : 2 frames
Codec ID : V_MPEG4/ISO/AVC
Duration : 43 min 58 s
Bit rate : 4 071 kb/s
Width : 1 280 pixels
Height : 718 pixels
Display aspect ratio : 16:9
Frame rate mode : Constant
Frame rate : 23.976 (23976/1000) FPS
Color space : YUV
Chroma subsampling : 4:2:0
Bit depth : 8 bits
Scan type : Progressive
Bits/(Pixel*Frame) : 0.185
Stream size : 1.25 GiB (91%)
Color range : Limited
Color primaries : BT.709
Transfer characteristics : BT.709
Matrix coefficients : BT.709

Audio
ID : 2
Format : AC-3
Format/Info : Audio Coding 3
Format settings, Endianness : Big
Codec ID : A_AC3
Duration : 43 min 57 s
Bit rate mode : Constant
Bit rate : 384 kb/s
Channel(s) : 6 channels
Channel positions : Front: L C R, Side: L R, LFE
Sampling rate : 48.0 kHz
Frame rate : 31.250 FPS (1536 SPF)
Bit depth : 16 bits
Compression mode : Lossy
Stream size : 121 MiB (9%)
Language : English
Service kind : Complete Main

Text
ID : 3
Format : UTF-8
Codec ID : S_TEXT/UTF8
Codec ID/Info : UTF-8 Plain Text
Duration : 43 min 10 s
Bit rate : 41 b/s
Count of elements : 444
Stream size : 13.2 KiB (0%)
Language : Polish

Lista plików Show/Hide [Pokaż/Ukryj]
Trackery
  • http://agusiq-torrents.pl:6969/announce
  • http://tracker.torrentyorg.pl/announce
  • udp://9.rarbg.com:2710/announce
  • udp://9.rarbg.me:2740/announce
  • udp://eddie4.nl:6969/announce
  • udp://tracker.leechers-paradise.org:6969/announce
  • udp://shadowshq.eddie4.nl:6969/announce
  • udp://poloniumsurfer.tk:6969/announce
  • udp://torrent.gresille.org:80/announce
  • udp://t1.pow7.com/announce
  • udp://tracker.pomf.se:80/announce
  • udp://sugoi.pomf.se:80/announce
  • udp://10.rarbg.com/announce
  • udp://tracker.openbittorrent.com:80/announce
  • udp://tracker.glotorrents.com:6969/announce
  • http://tracker.tfile.me/announce
  • udp://tracker.torrentbay.to:6969/announce
  • udp://exodus.desync.com:6969/announce
  • udp://tracker.istole.it:80/announce
  • http://tracker.filetracker.pl:8089/announce
  • http://retracker.omsk.ru:2710/announce
  • http://mgtracker.org:2710/announce
  • udp://tracker.publicbt.com/announce
  • udp://tracker.prq.to/announce

Brak komentarzy!

Żaden z plików nie znajduje się na serwerze. Torrenty są własnością użytkowników. Administrator serwisu nie może ponieść konsekwencji za to co użytkownicy wstawiają, lub za to co czynią na stronie. Nie możesz używać tego serwisu do rozpowszechniania lub ściągania materiałów do których nie masz odpowiednich praw lub licencji. Użytkownicy odpowiedzialni są za przestrzeganie tych zasad.
Copyright © 2016 Ex-Torrentyorgs.pl

Najlepsze strony Torrentowe